Ariana Grande - Baby I (TELEHIT.HD.1080i.DD2.0).-Crusha

Discussion in 'TELEHIT HD' started by Crusha, Feb 16, 2016.

  1. Crusha

    Crusha Well-Known Member Capper V . I . P.

    Joined:
    Oct 15, 2014
    Messages:
    2,575
    Likes Received:
    4,479
    [​IMG]

    Mediainfo
    General
    ID : 1 (0x1)
    Complete name : Ariana Grande - Baby I (TELEHIT.HD.1080i.DD2.0).-Crusha.ts
    Format : MPEG-TS
    File size : 84.1 MiB
    Duration : 3mn 16s
    Overall bit rate mode : Variable
    Overall bit rate : 3 599 Kbps

    Video
    ID : 2238 (0x8BE)
    Menu ID : 857 (0x359)
    Format : AVC
    Format/Info : Advanced Video Codec
    Format profile : [email protected]
    Format settings, CABAC : Yes
    Format settings, ReFrames : 4 frames
    Format settings, GOP : M=8, N=32
    Codec ID : 27
    Duration : 3mn 15s
    Bit rate : 3 227 Kbps
    Width : 1 920 pixels
    Height : 1 080 pixels
    Display aspect ratio : 16:9
    Frame rate : 29.970 fps
    Standard : Component
    Color space : YUV
    Chroma subsampling : 4:2:0
    Bit depth : 8 bits
    Scan type : MBAFF
    Scan order : Top Field First
    Bits/(Pixel*Frame) : 0.052
    Stream size : 75.3 MiB (89%)
    Color range : Limited
    Color primaries : BT.709
    Transfer characteristics : BT.709
    Matrix coefficients : BT.709

    Audio
    ID : 3849 (0xF09)
    Menu ID : 857 (0x359)
    Format : AC-3
    Format/Info : Audio Coding 3
    Mode extension : CM (complete main)
    Format settings, Endianness : Big
    Codec ID : 6
    Duration : 3mn 15s
    Bit rate mode : Constant
    Bit rate : 192 Kbps
    Channel(s) : 2 channels
    Channel positions : Front: L R
    Sampling rate : 48.0 KHz
    Bit depth : 16 bits
    Compression mode : Lossy
    Delay relative to video : -233ms
    Stream size : 4.48 MiB (5%)
    Language : English
    Hidden Content:
    You must reply before you can see the hidden data contained here.
    Password:
    crusha
     
  2. Zeeh

    Zeeh Rallyforrivers.org

    Joined:
    Mar 20, 2015
    Messages:
    754
    Likes Received:
    32
    Thanks you.
     
  3. sideshow_bob

    sideshow_bob Well-Known Member

    Joined:
    Dec 20, 2013
    Messages:
    3,699
    Likes Received:
    778
    thank you
     
  4. orgulo

    orgulo Well-Known Member

    Joined:
    Jan 16, 2017
    Messages:
    1,061
    Likes Received:
    67
    thanks
     
  5. NiceBoy

    NiceBoy Member

    Joined:
    May 20, 2016
    Messages:
    247
    Likes Received:
    8
    Many Thanks
     
  6. chapmeow

    chapmeow https://youtu.be/V-yWp2nm-n8

    Joined:
    Jul 6, 2018
    Messages:
    575
    Likes Received:
    1,067
    Thanks
     
  7. taylorari

    taylorari Member

    Joined:
    Aug 4, 2019
    Messages:
    115
    Likes Received:
    6
    thank you
     

Visit original Sharemania.us