Ariana Grande - Focus (One.by HD 1080i) - dan93star

Discussion in 'One.by HD' started by Dreamer, Nov 5, 2015.

  1. Dreamer

    Dreamer Stream RED (Taylor's Version) V . I . P. Uploader

    Joined:
    Dec 4, 2014
    Messages:
    3,412
    Likes Received:
    14,604
    Ariana Grande - Focus (One.by HD)

    [​IMG]

    General
    ID : 0 (0x0)
    Complete name : C:\Users\DK\Desktop\Ariana Grande - Focus (One.by HD).ts
    Format : MPEG-TS
    File size : 117 MiB
    Duration : 3mn 28s
    Overall bit rate mode : Variable
    Overall bit rate : 4 720 Kbps
    Maximum Overall bit rate : 3 700 Kbps

    Video
    ID : 4113 (0x1011)
    Menu ID : 1 (0x1)
    Format : AVC
    Format/Info : Advanced Video Codec
    Format profile : [email protected]
    Format settings, CABAC : Yes
    Format settings, ReFrames : 2 frames
    Codec ID : 27
    Duration : 3mn 28s
    Bit rate : 4 332 Kbps
    Width : 1 920 pixels
    Height : 1 080 pixels
    Display aspect ratio : 16:9
    Frame rate : 25.000 fps
    Color space : YUV
    Chroma subsampling : 4:2:0
    Bit depth : 8 bits
    Scan type : Progressive
    Bits/(Pixel*Frame) : 0.084
    Stream size : 108 MiB (92%)

    Audio
    ID : 4352 (0x1100)
    Menu ID : 1 (0x1)
    Format : AC-3
    Format/Info : Audio Coding 3
    Mode extension : CM (complete main)
    Format settings, Endianness : Big
    Codec ID : 129
    Duration : 3mn 28s
    Bit rate mode : Constant
    Bit rate : 192 Kbps
    Channel(s) : 2 channels
    Channel positions : Front: L R
    Sampling rate : 48.0 KHz
    Compression mode : Lossy
    Stream size : 4.77 MiB (4%)

    Capped by me

    Hidden Content:
    You must reply before you can see the hidden data contained here.
     
    Last edited: Nov 5, 2015
    RAVIXX, 777josem, Puchacz93 and 4 others like this.
  2. rhea

    rhea Well-Known Member

    Joined:
    Jan 6, 2014
    Messages:
    12,167
    Likes Received:
    2,435
    thank you so much!
     
  3. Dfrazzer

    Dfrazzer Super Moderator Staff Member Super Moderator Capper V . I . P. Donor

    Joined:
    Nov 4, 2013
    Messages:
    6,359
    Likes Received:
    19,079
    Thanks it's a great video.
     
    Dreamer likes this.
  4. xcxshunfeng

    xcxshunfeng Active Member

    Joined:
    Aug 31, 2014
    Messages:
    412
    Likes Received:
    45
  5. RAVIXX

    RAVIXX Well-Known Member V . I . P. Uploader

    Joined:
    Feb 20, 2014
    Messages:
    6,971
    Likes Received:
    105,044
    Thank you so much!
     
    Dreamer likes this.
  6. Jose_Moreira_2014

    Jose_Moreira_2014 I love music

    Joined:
    Oct 23, 2014
    Messages:
    154
    Likes Received:
    6
    Gracias Amigo
     
  7. Hyrus

    Hyrus Aria/Sele-nator ~ Camilizer ~ Black Star ~ BLINK Donor

    Joined:
    Feb 9, 2015
    Messages:
    1,582
    Likes Received:
    1,902
    Thanks a lot for the beautiful Ari :happy:
     
    Dreamer likes this.
  8. nolynexor88

    nolynexor88 nolynexor88

    Joined:
    Sep 29, 2015
    Messages:
    2,292
    Likes Received:
    244
    Thank you.
     
  9. franklele

    franklele Well-Known Member

    Joined:
    Nov 11, 2013
    Messages:
    2,877
    Likes Received:
    195
    thank you very much
     
  10. Nytrpo

    Nytrpo Member

    Joined:
    May 5, 2014
    Messages:
    188
    Likes Received:
    3
    thanks bruh
     
  11. Joseph

    Joseph Active Member

    Joined:
    Dec 10, 2013
    Messages:
    792
    Likes Received:
    237
    THANK YOU!!!!!
     
  12. luvmv

    luvmv Member

    Joined:
    Sep 7, 2014
    Messages:
    104
    Likes Received:
    0
    thank you
     
  13. Puchacz93

    Puchacz93 Well-Known Member

    Joined:
    Feb 4, 2015
    Messages:
    1,299
    Likes Received:
    952
    Thank you.:love:
     
  14. noobster

    noobster Member

    Joined:
    Mar 16, 2014
    Messages:
    147
    Likes Received:
    2
    cheers man
     
  15. Crusha

    Crusha Well-Known Member Capper V . I . P.

    Joined:
    Oct 15, 2014
    Messages:
    2,575
    Likes Received:
    4,479
    thank you
     
  16. G D

    G D Member

    Joined:
    Dec 1, 2014
    Messages:
    207
    Likes Received:
    3
    Thank you
     
  17. hungquocphan

    hungquocphan Active Member

    Joined:
    Nov 1, 2013
    Messages:
    928
    Likes Received:
    40
    thank for share
     
  18. 777josem

    777josem ProRes 1080p LPCM V . I . P. Uploader

    Joined:
    Sep 1, 2014
    Messages:
    3,892
    Likes Received:
    5,915
    Thank you so much!
     
  19. Grailen

    Grailen Well-Known Member

    Joined:
    Oct 8, 2013
    Messages:
    721
    Likes Received:
    1,111
    thank you
     
  20. 江雨燃双鱼

    江雨燃双鱼 Active Member

    Joined:
    Apr 5, 2014
    Messages:
    918
    Likes Received:
    87

Visit original Sharemania.us