Beyonce ft. Nicki Minaj - Flawless [Remix] (Multishow.HD.1080i.DD5.1).-Crusha

Discussion in 'MULTISHOW HD' started by Crusha, Jun 24, 2015.

  1. Crusha

    Crusha Well-Known Member Capper V . I . P.

    Joined:
    Oct 15, 2014
    Messages:
    2,575
    Likes Received:
    4,479
    [​IMG]
    [​IMG]
    [​IMG]

    General
    ID : 1 (0x1)
    Complete name : Beyonce ft. Nicki Minaj - Flawless [Remix] (Multishow.HD.1080i.DD5.1).-Crusha.ts
    Format : MPEG-TS
    File size : 154 MiB
    Duration : 5mn 10s
    Overall bit rate mode : Variable
    Overall bit rate : 4 159 Kbps

    Video
    ID : 2593 (0xA21)
    Menu ID : 2542 (0x9EE)
    Format : AVC
    Format/Info : Advanced Video Codec
    Format profile : [email protected]
    Format settings, CABAC : Yes
    Format settings, ReFrames : 4 frames
    Codec ID : 27
    Duration : 5mn 10s
    Bit rate : 3 566 Kbps
    Width : 1 920 pixels
    Height : 1 080 pixels
    Display aspect ratio : 16:9
    Frame rate : 29.970 fps
    Standard : Component
    Color space : YUV
    Chroma subsampling : 4:2:0
    Bit depth : 8 bits
    Scan type : MBAFF
    Scan order : Top Field First
    Bits/(Pixel*Frame) : 0.057
    Stream size : 132 MiB (86%)
    Color primaries : BT.709
    Transfer characteristics : BT.709
    Matrix coefficients : BT.709
    Color range : Limited

    Audio
    ID : 3593 (0xE09)
    Menu ID : 2542 (0x9EE)
    Format : AC-3
    Format/Info : Audio Coding 3
    Mode extension : CM (complete main)
    Format settings, Endianness : Big
    Codec ID : 6
    Duration : 5mn 10s
    Bit rate mode : Constant
    Bit rate : 384 Kbps
    Channel(s) : 6 channels
    Channel positions : Front: L C R, Side: L R, LFE
    Sampling rate : 48.0 KHz
    Bit depth : 16 bits
    Compression mode : Lossy
    Stream size : 14.2 MiB (9%)
    Language : English

    Hidden Content:
    You must either reply or click 'Like' to see the hidden information contained here.
    Password: crusha

    Cap by Me :p
     
  2. Loading...


  3. mizdot

    mizdot Well-Known Member

    Joined:
    Nov 13, 2014
    Messages:
    3,947
    Likes Received:
    208
    tnx man
     
  4. senorguti

    senorguti Member

    Joined:
    Jun 1, 2015
    Messages:
    242
    Likes Received:
    3
    thanksssssssssssssssssssssssssssssssss you
     
  5. joecavalcantii

    joecavalcantii Member

    Joined:
    Sep 22, 2014
    Messages:
    68
    Likes Received:
    1
    we flawless!
     
  6. Danielcha

    Danielcha Active Member

    Joined:
    Sep 20, 2014
    Messages:
    962
    Likes Received:
    101
    thanks so much
     
  7. klaus

    klaus Well-Known Member

    Joined:
    Sep 11, 2014
    Messages:
    1,841
    Likes Received:
    105
    thank you
     
  8. Adriano Everton

    Adriano Everton Well-Known Member

    Joined:
    Aug 25, 2014
    Messages:
    2,135
    Likes Received:
    265
  9. Pavulon

    Pavulon Well-Known Member Donor

    Joined:
    Mar 22, 2016
    Messages:
    5,051
    Likes Received:
    1,767
    thanks
     
  10. luigi1987

    luigi1987 Member

    Joined:
    Sep 2, 2016
    Messages:
    147
    Likes Received:
    9
    thanks
     
  11. carlo4444

    carlo4444 Active Member

    Joined:
    Aug 6, 2018
    Messages:
    728
    Likes Received:
    39
    thanks
     
  12. aicha_konate

    aicha_konate Well-Known Member

    Joined:
    Jun 25, 2018
    Messages:
    1,363
    Likes Received:
    105
  13. igjfplex

    igjfplex Member

    Joined:
    Apr 1, 2019
    Messages:
    160
    Likes Received:
    22
    thanks
     
  14. Minajfav

    Minajfav Active Member

    Joined:
    Jul 2, 2018
    Messages:
    820
    Likes Received:
    62
    Thanks
     
  15. unitedbymusic

    unitedbymusic Member

    Joined:
    Jun 18, 2021
    Messages:
    72
    Likes Received:
    1
    hgjhjghjjykhkk
     

Visit original Sharemania.us