Beyonce - Rocket (Bis.HD.1080i.DD5.1).-Crusha

Discussion in 'BIS HD' started by Crusha, Jun 23, 2015.

  1. Crusha

    Crusha Well-Known Member Capper V . I . P.

    Joined:
    Oct 15, 2014
    Messages:
    2,575
    Likes Received:
    4,479
    [​IMG]
    [​IMG]
    [​IMG]

    ID : 1 (0x1)
    Complete name : Beyonce - Rocket (Bis.HD.1080i.DD5.1).-Crusha.ts
    Format : MPEG-TS
    File size : 112 MiB
    Duration : 4mn 28s
    Overall bit rate mode : Variable
    Overall bit rate : 3 488 Kbps

    Video
    ID : 2027 (0x7EB)
    Menu ID : 802 (0x322)
    Format : AVC
    Format/Info : Advanced Video Codec
    Format profile : [email protected]
    Format settings, CABAC : Yes
    Format settings, ReFrames : 4 frames
    Codec ID : 27
    Duration : 4mn 28s
    Bit rate : 2 927 Kbps
    Width : 1 920 pixels
    Height : 1 080 pixels
    Display aspect ratio : 16:9
    Frame rate : 29.970 fps
    Standard : Component
    Color space : YUV
    Chroma subsampling : 4:2:0
    Bit depth : 8 bits
    Scan type : MBAFF
    Scan order : Top Field First
    Bits/(Pixel*Frame) : 0.047
    Stream size : 93.7 MiB (84%)
    Color primaries : BT.709
    Transfer characteristics : BT.709
    Matrix coefficients : BT.709
    Color range : Limited

    Audio
    ID : 3027 (0xBD3)
    Menu ID : 802 (0x322)
    Format : AC-3
    Format/Info : Audio Coding 3
    Mode extension : CM (complete main)
    Format settings, Endianness : Big
    Codec ID : 6
    Duration : 4mn 28s
    Bit rate mode : Constant
    Bit rate : 384 Kbps
    Channel(s) : 6 channels
    Channel positions : Front: L C R, Side: L R, LFE
    Sampling rate : 48.0 KHz
    Bit depth : 16 bits
    Compression mode : Lossy
    Stream size : 12.3 MiB (11%)
    Language : English

    Hidden Content:
    You must either reply or click 'Like' to see the hidden information contained here.
    Password: crusha

    Cap by Me :)
     
    gh-sean, arasu123, lebartt and 4 others like this.
  2. Loading...


  3. chianafan

    chianafan Member

    Joined:
    May 20, 2015
    Messages:
    229
    Likes Received:
    6
    thank you
     
  4. franklele

    franklele Well-Known Member

    Joined:
    Nov 11, 2013
    Messages:
    2,877
    Likes Received:
    195
    thank you very much
     
  5. GHN

    GHN Active Member

    Joined:
    Oct 27, 2014
    Messages:
    993
    Likes Received:
    35
    Thank you
     
  6. lebartt

    lebartt Active Member

    Joined:
    Nov 20, 2013
    Messages:
    637
    Likes Received:
    36
    Tnx só much
     
  7. michaelca1

    michaelca1 Member

    Joined:
    Jul 26, 2021
    Messages:
    406
    Likes Received:
    1
    спасибо
     

Visit original Sharemania.us