HDTV Black Eyed Peas - Meet Me Halfway + Boom Boom Pow - American Music Awards 2009

Discussion in 'HD Live Performances' started by MarkHorax, Oct 13, 2021.

  1. MarkHorax

    MarkHorax Well-Known Member

    Joined:
    Dec 10, 2016
    Messages:
    825
    Likes Received:
    1,936
    [​IMG]
    Code:
    General
    ID                             : 1 (0x1)
    Complete name                  : Black Eyed Peas - Meet Me Halfway + Boom Boom Pow - American Music Awards 2009.ts
    Format                         : MPEG-TS
    File size                      : 800 MiB
    Duration                       : 7 min 5 s
    Overall bit rate mode          : Variable
    Overall bit rate               : 15.8 Mb/s
    Movie name                     : 2009 AMERICAN MUSIC AWARDS
    Law rating                     : TV-14 (L)
    
    Video
    ID                             : 17 (0x11)
    Menu ID                        : 1 (0x1)
    Format                         : MPEG Video
    Commercial name                : HDV 720p
    Format version                 : Version 2
    Format profile                 : [email protected]
    Format settings, BVOP          : Yes
    Format settings, Matrix        : Custom
    Format settings, GOP           : Variable
    Codec ID                       : 2
    Duration                       : 7 min 5 s
    Bit rate mode                  : Variable
    Bit rate                       : 14.6 Mb/s
    Maximum bit rate               : 14.9 Mb/s
    Width                          : 1 280 pixels
    Height                         : 720 pixels
    Display aspect ratio           : 16:9
    Frame rate                     : 59.940 (60000/1001) FPS
    Standard                       : Component
    Color space                    : YUV
    Chroma subsampling             : 4:2:0
    Bit depth                      : 8 bits
    Scan type                      : Progressive
    Compression mode               : Lossy
    Bits/(Pixel*Frame)             : 0.265
    Time code of first frame       : 00:00:00;00
    Time code source               : Group of pictures header
    GOP, Open/Closed               : Open
    Stream size                    : 741 MiB (93%)
    
    Audio
    ID                             : 20 (0x14)
    Menu ID                        : 1 (0x1)
    Format                         : AC-3
    Format/Info                    : Audio Coding 3
    Format settings, Endianness    : Big
    Codec ID                       : 129
    Duration                       : 7 min 5 s
    Bit rate mode                  : Constant
    Bit rate                       : 384 kb/s
    Channel(s)                     : 6 channels
    Channel positions              : Front: L C R, Side: L R, LFE
    Sampling rate                  : 48.0 kHz
    Frame rate                     : 31.250 FPS (1536 SPF)
    Bit depth                      : 16 bits
    Compression mode               : Lossy
    Delay relative to video        : 6 ms
    Stream size                    : 19.5 MiB (2%)
    Language                       : English
    Service kind                   : Complete Main
    
    Text #1
    ID                             : 17 (0x11)-CC1
    Menu ID                        : 1 (0x1)
    Format                         : EIA-608
    Muxing mode                    : A/53 / DTVCC Transport
    Muxing mode, more info         : Muxed in Video #1
    Duration                       : 7 min 5 s
    Bit rate mode                  : Constant
    Stream size                    : 0.00 Byte (0%)
    CaptionServiceName             : CC1
    
    Text #2
    ID                             : 17 (0x11)-CC3
    Menu ID                        : 1 (0x1)
    Format                         : EIA-608
    Muxing mode                    : A/53 / DTVCC Transport
    Muxing mode, more info         : Muxed in Video #1
    Duration                       : 7 min 5 s
    Bit rate mode                  : Constant
    Stream size                    : 0.00 Byte (0%)
    CaptionServiceName             : CC3
    
    Text #3
    ID                             : 17 (0x11)-1
    Menu ID                        : 1 (0x1)
    Format                         : EIA-708
    Muxing mode                    : A/53 / DTVCC Transport
    Muxing mode, more info         : Muxed in Video #1
    Duration                       : 7 min 5 s
    Bit rate mode                  : Constant
    Stream size                    : 0.00 Byte (0%)
    
    
    Hidden Content:
    You must either reply or click 'Like' to see the hidden information contained here.
     
  2. Loading...


  3. marinxx

    marinxx Well-Known Member

    Joined:
    Jul 7, 2014
    Messages:
    1,376
    Likes Received:
    194
    Thanks
     
  4. multimediafm

    multimediafm Well-Known Member Archiver Donor

    Joined:
    Mar 27, 2014
    Messages:
    21,406
    Likes Received:
    2,668
  5. keven

    keven Well-Known Member

    Joined:
    Apr 1, 2015
    Messages:
    1,562
    Likes Received:
    107
    Oh my god! THANK YOU SO MUCH!!!!
     
  6. plwww

    plwww Well-Known Member

    Joined:
    May 28, 2016
    Messages:
    1,487
    Likes Received:
    130
    Thanks
     
  7. keven

    keven Well-Known Member

    Joined:
    Apr 1, 2015
    Messages:
    1,562
    Likes Received:
    107
    Pls Green Day and Alicia Keys performance :love::cry:
     
  8. jcdiaz

    jcdiaz New Member

    Joined:
    Oct 13, 2021
    Messages:
    1
    Likes Received:
    0
    gracias
     
  9. Arturo Vidal

    Arturo Vidal Member

    Joined:
    Sep 1, 2019
    Messages:
    102
    Likes Received:
    7
  10. Honglong

    Honglong Well-Known Member

    Joined:
    Feb 6, 2020
    Messages:
    1,576
    Likes Received:
    134
    thanks
     
  11. exterminador

    exterminador Well-Known Member

    Joined:
    Jul 3, 2016
    Messages:
    4,052
    Likes Received:
    476
  12. JPGAmbrosino

    JPGAmbrosino Well-Known Member

    Joined:
    Jul 30, 2016
    Messages:
    5,648
    Likes Received:
    257
    txsssssssssssssssssssssssss
     
  13. Clepsodra

    Clepsodra Active Member

    Joined:
    Jan 15, 2017
    Messages:
    151
    Likes Received:
    10
  14. cesar140380

    cesar140380 Active Member

    Joined:
    Aug 29, 2016
    Messages:
    441
    Likes Received:
    71
    thanks you so much
     
  15. Sergiote12

    Sergiote12 Member

    Joined:
    Feb 12, 2021
    Messages:
    176
    Likes Received:
    4

Visit original Sharemania.us