HDTV Finneas - Love Is Pain - The Late Late Show with James Corden [Oct-26-2021] CBS 1080i HDTV DD5.1 MPEG2 ilya2129-HDMania [CC]

Discussion in 'HD Live Performances' started by melodie, Oct 28, 2021.

  1. melodie

    melodie Well-Known Member V . I . P. Uploader

    Joined:
    Dec 29, 2020
    Messages:
    2,231
    Likes Received:
    10,712
    Finneas - Love Is Pain - The Late Late Show with James Corden [Oct-26-2021] CBS 1080i HDTV DD5.1 MPEG2 ilya2129-HDMania [CC]

    [​IMG]


    Format : MPEG-TS
    File size : 249 MiB
    Duration : 4 min 3 s
    Overall bit rate mode : Variable
    Overall bit rate : 8 563 kb/s
    Movie name : Late Late Show
    Law rating : TV-14 (DL)

    Video
    ID : 302 (0x12E)
    Menu ID : 1 (0x1)
    Format : MPEG Video
    Format version : Version 2
    Format profile : [email protected]
    Format settings : BVOP
    Format settings, BVOP : Yes
    Format settings, Matrix : Default
    Format settings, GOP : Variable
    Format settings, picture st : Frame
    Codec ID : 2
    Duration : 4 min 3 s
    Bit rate mode : Variable
    Bit rate : 7 558 kb/s
    Maximum bit rate : 80.0 Mb/s
    Width : 1 920 pixels
    Height : 1 080 pixels
    Display aspect ratio : 16:9
    Active Format Description : Full frame 16:9 image
    Frame rate : 29.970 (30000/1001) FPS
    Color space : YUV
    Chroma subsampling : 4:2:0
    Bit depth : 8 bits
    Scan type : Interlaced
    Scan order : Top Field First
    Compression mode : Lossy
    Bits/(Pixel*Frame) : 0.122
    Time code of first frame : 10:07:27;09
    Time code source : Group of pictures header
    GOP, Open/Closed : Open
    GOP, Open/Closed of first f : Closed
    Stream size : 219 MiB (88%)

    Audio #1
    ID : 303 (0x12F)
    Menu ID : 1 (0x1)
    Format : AC-3
    Format/Info : Audio Coding 3
    Commercial name : Dolby Digital
    Codec ID : 129
    Duration : 4 min 3 s
    Bit rate mode : Constant
    Bit rate : 384 kb/s
    Channel(s) : 6 channels
    Channel layout : L R C LFE Ls Rs
    Sampling rate : 48.0 kHz
    Frame rate : 31.250 FPS (1536 SPF)
    Compression mode : Lossy
    Delay relative to video : 11 ms
    Stream size : 11.1 MiB (4%)
    Language : English
    Service kind : Complete Main

    Audio #2
    ID : 304 (0x130)
    Menu ID : 1 (0x1)
    Format : AC-3
    Format/Info : Audio Coding 3
    Commercial name : Dolby Digital
    Codec ID : 129
    Duration : 4 min 3 s
    Bit rate mode : Constant
    Bit rate : 192 kb/s
    Channel(s) : 2 channels
    Channel layout : L R
    Sampling rate : 48.0 kHz
    Frame rate : 31.250 FPS (1536 SPF)
    Compression mode : Lossy
    Delay relative to video : 11 ms
    Stream size : 5.57 MiB (2%)
    Language : Spanish
    Service kind : Complete Main

    Text #1
    ID : 302 (0x12E)-CC1
    Menu ID : 1 (0x1)
    Format : EIA-608
    Muxing mode : A/53 / DTVCC Transport
    Muxing mode, more info : Muxed in Video #1
    Duration : 4 min 3 s
    Bit rate mode : Constant
    Stream size : 0.00 Byte (0%)
    CaptionServiceName : CC1

    Text #2
    ID : 302 (0x12E)-CC3
    Menu ID : 1 (0x1)
    Format : EIA-608
    Muxing mode : A/53 / DTVCC Transport
    Muxing mode, more info : Muxed in Video #1
    Duration : 4 min 3 s
    Bit rate mode : Constant
    Stream size : 0.00 Byte (0%)
    CaptionServiceName : CC3

    Text #3
    ID : 302 (0x12E)-1
    Menu ID : 1 (0x1)
    Format : EIA-708
    Muxing mode : A/53 / DTVCC Transport
    Muxing mode, more info : Muxed in Video #1
    Duration : 4 min 3 s
    Bit rate mode : Constant
    Stream size : 0.00 Byte (0%)

    Text #4
    ID : 302 (0x12E)-2
    Menu ID : 1 (0x1)
    Format : EIA-708
    Muxing mode : A/53 / DTVCC Transport
    Muxing mode, more info : Muxed in Video #1
    Duration : 4 min 3 s
    Bit rate mode : Constant
    Stream size : 0.00 Byte (0%)

    Text #5
    ID : 302 (0x12E)-3
    Menu ID : 1 (0x1)
    Format : EIA-708
    Muxing mode : A/53 / DTVCC Transport
    Muxing mode, more info : Muxed in Video #1
    Duration : 4 min 3 s
    Bit rate mode : Constant
    Stream size : 0.00 Byte (0%)

    Text #6
    ID : 302 (0x12E)-4
    Menu ID : 1 (0x1)
    Format : EIA-708
    Muxing mode : A/53 / DTVCC Transport
    Muxing mode, more info : Muxed in Video #1
    Duration : 4 min 3 s
    Bit rate mode : Constant
    Stream size : 0.00 Byte (0%)

    Text #7
    ID : 302 (0x12E)-5
    Menu ID : 1 (0x1)
    Format : EIA-708
    Muxing mode : A/53 / DTVCC Transport
    Muxing mode, more info : Muxed in Video #1
    Duration : 4 min 3 s
    Bit rate mode : Constant
    Stream size : 0.00 Byte (0%)

    Text #8
    ID : 302 (0x12E)-6
    Menu ID : 1 (0x1)
    Format : EIA-708
    Muxing mode : A/53 / DTVCC Transport
    Muxing mode, more info : Muxed in Video #1
    Duration : 4 min 3 s
    Bit rate mode : Constant
    Stream size : 0.00 Byte (0%)

    Hidden Content:
    You must either reply or click 'Like' to see the hidden information contained here.
     
  2. Loading...


  3. CELOBRAZiL

    CELOBRAZiL Well-Known Member Capper V . I . P. Donor

    Joined:
    Oct 2, 2013
    Messages:
    13,668
    Likes Received:
    49,829
    Thanks! :)
     
  4. multimediafm

    multimediafm Well-Known Member Archiver Donor

    Joined:
    Mar 27, 2014
    Messages:
    21,852
    Likes Received:
    2,834
  5. BlackRose

    BlackRose Active Member

    Joined:
    Mar 15, 2021
    Messages:
    446
    Likes Received:
    47
    Thank u
     

Visit original Sharemania.us