Justin Bieber - Love Yourself (MULTISHOW.HD.1080i.DD5.1).-Crusha.ts

Discussion in 'MULTISHOW HD' started by Crusha, Mar 4, 2016.

  1. Crusha

    Crusha Well-Known Member Capper V . I . P.

    Joined:
    Oct 15, 2014
    Messages:
    2,575
    Likes Received:
    4,479
    [​IMG]

    Mediainfo
    General
    ID : 1 (0x1)
    Complete name : Justin Bieber - Love Yourself (MULTISHOW.HD.1080i.DD5.1).-Crusha.ts
    Format : MPEG-TS
    File size : 84.0 MiB
    Duration : 3mn 49s
    Overall bit rate mode : Variable
    Overall bit rate : 3 067 Kbps

    Video
    ID : 2593 (0xA21)
    Menu ID : 2542 (0x9EE)
    Format : AVC
    Format/Info : Advanced Video Codec
    Format profile : [email protected]
    Format settings, CABAC : Yes
    Format settings, ReFrames : 4 frames
    Codec ID : 27
    Duration : 3mn 49s
    Bit rate : 2 528 Kbps
    Width : 1 920 pixels
    Height : 1 080 pixels
    Display aspect ratio : 16:9
    Frame rate : 29.970 fps
    Standard : Component
    Color space : YUV
    Chroma subsampling : 4:2:0
    Bit depth : 8 bits
    Scan type : MBAFF
    Scan order : Top Field First
    Bits/(Pixel*Frame) : 0.041
    Stream size : 69.2 MiB (82%)
    Color range : Limited
    Color primaries : BT.709
    Transfer characteristics : BT.709
    Matrix coefficients : BT.709

    Audio
    ID : 3593 (0xE09)
    Menu ID : 2542 (0x9EE)
    Format : AC-3
    Format/Info : Audio Coding 3
    Mode extension : CM (complete main)
    Format settings, Endianness : Big
    Codec ID : 6
    Duration : 3mn 49s
    Bit rate mode : Constant
    Bit rate : 384 Kbps
    Channel(s) : 6 channels
    Channel positions : Front: L C R, Side: L R, LFE
    Sampling rate : 48.0 KHz
    Bit depth : 16 bits
    Compression mode : Lossy
    Stream size : 10.5 MiB (13%)
    Language : Portuguese

    Hidden Content:
    You must reply before you can see the hidden data contained here.
    Password:
    crusha
     
    csc games likes this.
  2. Loading...


  3. tranmanduy

    tranmanduy Member

    Joined:
    Jan 5, 2017
    Messages:
    200
    Likes Received:
    9
    thank you
     
  4. BJ Kenni

    BJ Kenni Active Member

    Joined:
    Mar 30, 2018
    Messages:
    197
    Likes Received:
    28
    love you
     
  5. csc games

    csc games Member

    Joined:
    Jun 5, 2018
    Messages:
    94
    Likes Received:
    7
    legal[​IMG]

    Mediainfo
    General
    ID : 1 (0x1)
    Complete name : Justin Bieber - Love Yourself (MULTISHOW.HD.1080i.DD5.1).-Crusha.ts
    Format : MPEG-TS
    File size : 84.0 MiB
    Duration : 3mn 49s
    Overall bit rate mode : Variable
    Overall bit rate : 3 067 Kbps

    Video
    ID : 2593 (0xA21)
    Menu ID : 2542 (0x9EE)
    Format : AVC
    Format/Info : Advanced Video Codec
    Format profile : [email protected]
    Format settings, CABAC : Yes
    Format settings, ReFrames : 4 frames
    Codec ID : 27
    Duration : 3mn 49s
    Bit rate : 2 528 Kbps
    Width : 1 920 pixels
    Height : 1 080 pixels
    Display aspect ratio : 16:9
    Frame rate : 29.970 fps
    Standard : Component
    Color space : YUV
    Chroma subsampling : 4:2:0
    Bit depth : 8 bits
    Scan type : MBAFF
    Scan order : Top Field First
    Bits/(Pixel*Frame) : 0.041
    Stream size : 69.2 MiB (82%)
    Color range : Limited
    Color primaries : BT.709
    Transfer characteristics : BT.709
    Matrix coefficients : BT.709

    Audio
    ID : 3593 (0xE09)
    Menu ID : 2542 (0x9EE)
    Format : AC-3
    Format/Info : Audio Coding 3
    Mode extension : CM (complete main)
    Format settings, Endianness : Big
    Codec ID : 6
    Duration : 3mn 49s
    Bit rate mode : Constant
    Bit rate : 384 Kbps
    Channel(s) : 6 channels
    Channel positions : Front: L C R, Side: L R, LFE
    Sampling rate : 48.0 KHz
    Bit depth : 16 bits
    Compression mode : Lossy
    Stream size : 10.5 MiB (13%)
    Language : Portuguese
    ***Hidden content cannot be quoted.***

    Password:
    crusha[/QUOTE]
     
  6. anugrah97

    anugrah97 Active Member

    Joined:
    Aug 16, 2017
    Messages:
    386
    Likes Received:
    47
    Thanks
     
  7. Ramon

    Ramon Active Member

    Joined:
    Feb 26, 2018
    Messages:
    916
    Likes Received:
    95
    obrigado
     
  8. rapp5

    rapp5 Member

    Joined:
    Feb 21, 2019
    Messages:
    79
    Likes Received:
    3
    thanks
     
  9. JPGAmbrosino

    JPGAmbrosino Well-Known Member

    Joined:
    Jul 30, 2016
    Messages:
    5,854
    Likes Received:
    273
    txssssssssssssssssssssssss
     
  10. rapp5

    rapp5 Member

    Joined:
    Feb 21, 2019
    Messages:
    79
    Likes Received:
    3
    thxxxxx
     

Visit original Sharemania.us