Madonna - Living For Love (Bis.HD.1080i.DD5.1).-Crusha

Discussion in 'BIS HD' started by Crusha, Jun 23, 2015.

  1. Crusha

    Crusha Well-Known Member Capper V . I . P.

    Joined:
    Oct 15, 2014
    Messages:
    2,575
    Likes Received:
    4,479
    [​IMG]
    [​IMG]
    [​IMG]

    General
    ID : 1 (0x1)
    Complete name : Madonna - Living For Love (Bis.HD.1080i.DD5.1).-Crusha.ts
    Format : MPEG-TS
    File size : 105 MiB
    Duration : 3mn 43s
    Overall bit rate mode : Variable
    Overall bit rate : 3 935 Kbps

    Video
    ID : 2027 (0x7EB)
    Menu ID : 802 (0x322)
    Format : AVC
    Format/Info : Advanced Video Codec
    Format profile : [email protected]
    Format settings, CABAC : Yes
    Format settings, ReFrames : 4 frames
    Codec ID : 27
    Duration : 3mn 43s
    Bit rate : 3 352 Kbps
    Width : 1 920 pixels
    Height : 1 080 pixels
    Display aspect ratio : 16:9
    Frame rate : 29.970 fps
    Standard : Component
    Color space : YUV
    Chroma subsampling : 4:2:0
    Bit depth : 8 bits
    Scan type : MBAFF
    Scan order : Top Field First
    Bits/(Pixel*Frame) : 0.054
    Stream size : 89.2 MiB (85%)
    Color primaries : BT.709
    Transfer characteristics : BT.709
    Matrix coefficients : BT.709
    Color range : Limited

    Audio
    ID : 3027 (0xBD3)
    Menu ID : 802 (0x322)
    Format : AC-3
    Format/Info : Audio Coding 3
    Mode extension : CM (complete main)
    Format settings, Endianness : Big
    Codec ID : 6
    Duration : 3mn 43s
    Bit rate mode : Constant
    Bit rate : 384 Kbps
    Channel(s) : 6 channels
    Channel positions : Front: L C R, Side: L R, LFE
    Sampling rate : 48.0 KHz
    Bit depth : 16 bits
    Compression mode : Lossy
    Stream size : 10.2 MiB (10%)
    Language : English

    Hidden Content:
    You must either reply or click 'Like' to see the hidden information contained here.
    Password: crusha

    Cap by Me :p
     
  2. Osh Şarif

    Osh Şarif Well-Known Member

    Joined:
    Dec 29, 2013
    Messages:
    361
    Likes Received:
    977
    Big thanks
     
  3. SriMalchik

    SriMalchik Member

    Joined:
    Oct 6, 2015
    Messages:
    88
    Likes Received:
    1
    thanks so much!
     
  4. Ozze

    Ozze Member

    Joined:
    May 28, 2018
    Messages:
    324
    Likes Received:
    22
    Thanks.
     
  5. ronan0201

    ronan0201 Active Member

    Joined:
    Apr 16, 2018
    Messages:
    341
    Likes Received:
    33
    thaskds
     
  6. pickdonna

    pickdonna Active Member

    Joined:
    Dec 13, 2016
    Messages:
    994
    Likes Received:
    47
    thank you
     
  7. mery

    mery Member

    Joined:
    Nov 1, 2016
    Messages:
    392
    Likes Received:
    14
    Gracias
     
  8. Pirilor

    Pirilor Member

    Joined:
    Apr 28, 2018
    Messages:
    212
    Likes Received:
    4
    Noice
     
  9. Zurc

    Zurc Member

    Joined:
    May 29, 2020
    Messages:
    52
    Likes Received:
    12
    Thanks
     
  10. kauling

    kauling Active Member

    Joined:
    Nov 24, 2015
    Messages:
    528
    Likes Received:
    85
    thanks
     
  11. JPGAmbrosino

    JPGAmbrosino Well-Known Member

    Joined:
    Jul 30, 2016
    Messages:
    5,854
    Likes Received:
    273
  12. jose2018

    jose2018 Well-Known Member

    Joined:
    Nov 26, 2016
    Messages:
    2,602
    Likes Received:
    165
    thank you
     
  13. beryozael

    beryozael Well-Known Member

    Joined:
    Oct 25, 2020
    Messages:
    1,806
    Likes Received:
    119
    спасибо
     
  14. michaelca1

    michaelca1 Member

    Joined:
    Jul 26, 2021
    Messages:
    406
    Likes Received:
    1
    спасибо
     

Visit original Sharemania.us