The Weeknd - Save Your Tears MULTISHOWHD 1080i HDTV DD5.1 H.264 CELOBRAZiL-HDMania

Discussion in 'MULTISHOW HD' started by CELOBRAZiL, Feb 11, 2021.

  1. CELOBRAZiL

    CELOBRAZiL Well-Known Member Capper V . I . P. Donor

    Joined:
    Oct 2, 2013
    Messages:
    13,659
    Likes Received:
    49,665
    The Weeknd - Save Your Tears MULTISHOWHD 1080i HDTV DD5.1 H.264 CELOBRAZiL-HDMania

    [​IMG]



    Format : MPEG-TS
    File size : 358 MiB
    Duration : 3 min 49 s
    Overall bit rate mode : Variable
    Overall bit rate : 13.1 Mb/s

    Video
    ID : 1328 (0x530)
    Menu ID : 542 (0x21E)
    Format : AVC
    Format/Info : Advanced Video Codec
    Format profile : [email protected]
    Format settings : CABAC / 4 Ref Frames
    Format settings, CABAC : Yes
    Format settings, Reference frames : 4 frames
    Codec ID : 27
    Duration : 3 min 49 s
    Bit rate : 11.9 Mb/s
    Width : 1 920 pixels
    Height : 1 080 pixels
    Display aspect ratio : 16:9
    Frame rate : 29.970 (30000/1001) FPS
    Color space : YUV
    Chroma subsampling : 4:2:0
    Bit depth : 8 bits
    Scan type : MBAFF
    Scan type, store method : Interleaved fields
    Scan order : Top Field First
    Bits/(Pixel*Frame) : 0.191
    Stream size : 324 MiB (91%)

    Audio #1
    ID : 1329 (0x531)
    Menu ID : 542 (0x21E)
    Format : AC-3
    Format/Info : Audio Coding 3
    Commercial name : Dolby Digital
    Codec ID : 129
    Duration : 3 min 49 s
    Bit rate mode : Constant
    Bit rate : 384 kb/s
    Channel(s) : 6 channels
    Channel layout : L R C LFE Ls Rs
    Sampling rate : 48.0 kHz
    Frame rate : 31.250 FPS (1536 SPF)
    Compression mode : Lossy
    Stream size : 10.5 MiB (3%)
    Language : Portuguese
    Service kind : Complete Main

    Audio #2
    ID : 7028 (0x1B74)
    Menu ID : 542 (0x21E)
    Format : MPEG Audio
    Format version : Version 1
    Format profile : Layer 2
    Format settings : Joint stereo / Intensity Stereo + MS Stereo
    Codec ID : 3
    Duration : 3 min 49 s
    Bit rate mode : Constant
    Bit rate : 192 kb/s
    Channel(s) : 2 channels
    Sampling rate : 48.0 kHz
    Frame rate : 41.667 FPS (1152 SPF)
    Compression mode : Lossy
    Stream size : 5.25 MiB (1%)
    Language : English


    Link(s):
    Hidden Content:
    You must either reply or click 'Like' to see the hidden information contained here.
     
    Last edited: Feb 11, 2021
  2. Loading...


  3. CELOBRAZiL

    CELOBRAZiL Well-Known Member Capper V . I . P. Donor

    Joined:
    Oct 2, 2013
    Messages:
    13,659
    Likes Received:
    49,665
    :love::love::love:

    Added GOOGLE DRIVE link! :p
     
  4. CELOBRAZiL

    CELOBRAZiL Well-Known Member Capper V . I . P. Donor

    Joined:
    Oct 2, 2013
    Messages:
    13,659
    Likes Received:
    49,665
    Added ZIPPYSHARE mirror link! :p
     
  5. rcj

    rcj Well-Known Member

    Joined:
    May 11, 2016
    Messages:
    2,558
    Likes Received:
    284
    Thank U!
     
  6. Pham tuan

    Pham tuan Well-Known Member

    Joined:
    Dec 23, 2018
    Messages:
    2,074
    Likes Received:
    254
  7. rhea

    rhea Well-Known Member

    Joined:
    Jan 6, 2014
    Messages:
    12,180
    Likes Received:
    2,436
    thank you so much! :)
     
  8. MCTR

    MCTR Active Member

    Joined:
    Feb 23, 2014
    Messages:
    365
    Likes Received:
    91
    thanks
     
  9. Danielcha

    Danielcha Active Member

    Joined:
    Sep 20, 2014
    Messages:
    962
    Likes Received:
    101
    thanks so much
     

Visit original Sharemania.us